Hawaii.Five-0.2010.S05E13.720p.HDTV.X264-DIMENSION.srt
El corredor del laberinto La C.. BluRay 1080p

Movies - Other

Maze Runner The Death Cure 2018 720p HDCAM x264 LLG

  • Download 5x Faster
  • Download torrent
  • Direct Download
  • Rate this torrent +  |  -

Torrent info

Name:Maze Runner The Death Cure 2018 720p HDCAM x264 LLG

Total Size: 1.75 GB

Magnet: Magnet Link

Seeds: 49

Leechers: 12

Stream: Watch Full Movie @ Movie4u

Last Updated: 2018-04-17 16:03:02 (Update Now)

Torrent added: 2018-02-27 06:00:53



CyberGhost VPN For Torrents

Torrent Files List


Sample.ts (Size: 1.75 GB) (Files: 2)

 Sample.ts

21.47 MB

 Maze.Runner.The.Death.Cure.2018.720p.HDCAM.x264.LLG.mp4

1.73 GB
 

tracker

leech seeds
 

Torrent description

******************************Screenshots:********************

http://picserver4u.com/apple/0401.html

http://picserver4u.com/apple/0402.html

http://picserver4u.com/apple/0403.html

http://picserver4u.com/apple/0404.html

http://picserver4u.com/apple/0405.html

**************************************************************

Complete name : Maze.Runner.The.Death.Cure.2018.720p.HDCAM.x264.LLG.mp4
Format : MPEG-4
Format profile : Base Media
Codec ID : isom (isom/iso2/avc1/mp41)
File size : 1.73 GiB
Duration : 2 h 21 min
Overall bit rate : 1 749 kb/s
Writing application : Lavf57.56.101

Video
ID : 1
Format : AVC
Format/Info : Advanced Video Codec
Format profile : [emailprotected]
Format settings : CABAC / 4 Ref Frames
Format settings, CABAC : Yes
Format settings, RefFrames : 4 frames
Codec ID : avc1
Codec ID/Info : Advanced Video Coding
Duration : 2 h 21 min
Bit rate : 1 500 kb/s
Width : 1 264 pixels
Height : 544 pixels
Display aspect ratio : 2.35:1
Frame rate mode : Constant
Frame rate : 23.976 (23976/1000) FPS
Color space : YUV
Chroma subsampling : 4:2:0
Bit depth : 8 bits
Scan type : Progressive
Bits/(Pixel*Frame) : 0.091
Stream size : 1.47 GiB (85%)

Audio
ID : 2
Format : AC-3
Format/Info : Audio Coding 3
Codec ID : ac-3
Duration : 2 h 21 min
Bit rate mode : Constant
Bit rate : 256 kb/s
Channel(s) : 6 channels
Channel positions : Front: L C R, Side: L R, LFE
Sampling rate : 48.0 kHz
Frame rate : 31.250 FPS (1536 SPF)
Bit depth : 16 bits
Compression mode : Lossy
Stream size : 259 MiB (15%)
Service kind : Complete Main
Default : Yes
Alternate group : 1

related torrents

Torrent name

health leech seeds Size
 


comments (0)

Main Menu